Convewrting AVI into MPEG4(Solved)

Hi Guys,
I want to convert some home video, (holiday type stuff) from AVI to MPEG4 so that it will hopefully play from a USB stick on my Sony Bravia TV, your suggestions would be most appreciated. I would prefer the simplest of solutions in order to carry out this task.
TIA,
Degsy

You are aware that AVI might already be MPEG4 ?

Here’s what I’d use for conversion…

sudo apt-get install winff

then use WinFF and try setting it to:-

Convert to: AVI
Preset: XviD Widescreen

(that works on most devices, including my TV’s and Xbox 360’s)

or maybe

Convert to: MPEG-4
Preset:
(just choose one)

or maybe

Convert to: PS3
Preset: 720 Widescreen

or maybe

Convert to: WMV
Preset: Xbox 360

or create your own profile.


In most cases (to save having to convert a whole video for testing) you can convert say the first few minutes … then stop the conversion … and test the partially complete output file.

Thanks Mark, tried your suggestion but this what came up:
avconv version 9.16-6:9.16-0ubuntu0.14.04.1, Copyright (c) 2000-2014 the Libav developers
built on Aug 10 2014 18:16:02 with gcc 4.8 (Ubuntu 4.8.2-19ubuntu1)
Guessed Channel Layout for Input Stream #0.1 : mono
Input #0, avi, from ‘/home/derek/Pictures/2014/Marbella Sept 2014/124___09/MVI_0703.AVI’:
Metadata:
creation_time : 2014-09-11 13:17:15
encoder : CanonMVI06
Duration: 00:00:35.26, start: 0.000000, bitrate: 14325 kb/s
Stream #0.0: Video: mjpeg, yuvj422p, 640x480, 29.97 fps, 29.97 tbr, 29.97 tbn
Stream #0.1: Audio: pcm_u8, 12000 Hz, mono, u8, 96 kb/s
Unknown encoder ‘libvo_aacenc’
Press Enter to Continue

Your comments would be appreciated,
Degsy

Hi Mark,
Tried again using the Preset Xvid Widescreen and that did work fine so once again thank you very much for your help.
I will mark this topic solved.

Degsy

Cool :slight_smile: